设为首页收藏本站

风云音乐谷

 找回密码
 注册会员

QQ登录

只需一步,快速开始

扫一扫,访问微社区


【揭露淘宝、微商卖U盘音乐、无损碟片15条惊天骗术】     【无损音乐下载、检测、使用、播放必备四步】

破解奥迪、途锐U盘播放wav、dts音乐方法 显示歌手和歌名的CD、DTS CD无损碟片制作教程 一键制作AC3 Audio DVD杜比音乐碟片
一键制作U盘(SD卡、TF卡)无损音乐教程 任何车型播放wav、flac、ape、dts无损音乐方法 一键制作DTS Audio DVD无损音乐碟片
一键批量抓取SACD光盘ISO镜像曲目的方法 一键制作世界最顶级的DVD Audio无损音乐碟片 一键制作WAV Audio DVD无损音乐碟片
U盘、碟片播放5.1环绕声dts音乐方法总结 一键制作U盘dts、wav、flac、ape视频音乐教程 一键制作DVD图片(视频)MV音乐碟片教程
查看: 417|回复: 15

[杂合专辑] 群星《豪记之星8》【WAV+CUE/百度】

[复制链接]
发表于 2017-10-7 12:51:05 | 显示全部楼层 |阅读模式

这么精彩的内容,您还在等什么呢?马上注册风云音乐谷查看完整内容

您需要 登录 才可以下载或查看,没有帐号?注册会员

x
cover.jpg

专辑名称:豪记之星8
专辑艺人:群星
发行公司:豪记影视唱片有限公司 
发行时间:2015年05月26日
专辑语种:台语
资源类型:WAV+CUE

专辑介绍:
收录多首最新超夯经典原声原影台语流行金曲!
动人的情歌,让人更感窝心
匠尽悲欢离合真情擎爱百听不厌
金曲歌王歌后联手出击
ㄠ5首冠军歌曲.
原影原音重现
精采最强档的唱将值得你珍藏

专辑曲目:
01.今生未了情 龙千玉主唱 民视八点档 龙飞凤舞 片尾曲
02.美丽的镜头 龙千玉/江志美主唱 三立 戏说台湾 片尾曲
03.幸福花 龙千玉主唱
04.轻风 龙千玉主唱
05.限时批 翁立友主唱
06.绝情路 翁立友主唱 三立八点档 世间情 主题曲
07.人生一出戏 翁立友主唱
08.用泪写缘份 翁立友主唱
09.恆春姑娘 张秀卿主唱
10.那么爱你 张秀卿主唱
11.幸福车站 张秀卿主唱
12.捧香 张秀卿主唱



下载地址:

游客,如果您要查看本帖隐藏内容请回复


下载地址:

游客,如果您要查看本帖隐藏内容请回复

评分

参与人数 1威望积分 +500 风云金币 +3 收起 理由
爱的天堂 + 500 + 3 分享不易,加分支持

查看全部评分

回复

使用道具 举报

 楼主| 发表于 2017-10-7 12:51:46 | 显示全部楼层
Exact Audio Copy V1.0 beta 3 from 29. August 2011

EAC 抓取日志文件从3. 十月 2015, 10:46

群星 / 豪记之星8

使用驱动器  :PIONEER DVD-RW  DVR-221L   Adapter: 1  ID: 1

读取模式      : 可靠Secure
使用精确流     : 是
清空音频缓存    : 是
使用 C2 指示器 : 否

读取偏移校正:               : 6
读取 Lead-In 和 Lead-Out : 否
用静音填充抓取中丢失偏移的采样       : 是
去除首尾静音块               : 否
在CRC 计算中使用了空样本       : 是
已用接口                  : Win NT 及 2000 本地 Win32 接口

所用输出模式: : 内部 WAV 函数
样本格式    : 44.100 Hz; 16 Bit; 立体声


已抓取 CD 的 TOC

     音轨 |    起始    |    长度    |  起始扇区  |  结束扇区  
    --------------------------------------------
      1 |  0:00.00 |  4:13.19 |      0 |  18993
      2 |  4:13.19 |  4:05.25 |  18994 |  37393
      3 |  8:18.44 |  5:09.18 |  37394 |  60586
      4 | 13:27.62 |  4:10.30 |  60587 |  79366
      5 | 17:38.17 |  4:57.31 |  79367 | 101672
      6 | 22:35.48 |  4:34.24 | 101673 | 122246
      7 | 27:09.72 |  4:16.27 | 122247 | 141473
      8 | 31:26.24 |  4:40.25 | 141474 | 162498
      9 | 36:06.49 |  3:49.28 | 162499 | 179701
     10 | 39:56.02 |  4:31.26 | 179702 | 200052
     11 | 44:27.28 |  3:58.21 | 200053 | 217923
     12 | 48:25.49 |  4:11.27 | 217924 | 236775


范围状态及错误

已选择范围

     文件名 E:\bhvvvv\豪记之星8\群星 - 豪记之星8.wav

     峰值电平 96.4 %
     抓取速度 1.9 X
     范围质量 99.9 %
     复制 CRC CEB1DFCA
     复制成功

没有错误发生

状态报告结尾

---- CUETools DB Plugin V2.1.3

[CTDB TOCID: NduKEN2PfToRqucm5ZYFGSLQft4-] disk not present in database, Submit result: NduKEN2PfToRqucm5ZYFGSLQft4- has been uploaded


==== 记录校验日志 5942D5151F06885F01C26CE8C24498916E412C126FD68459A92CDBEC8A342847 ====
回复 支持 反对

使用道具 举报

发表于 2017-10-7 18:32:54 | 显示全部楼层
真心谢谢分享豪记之星8,今天8碟不容易
回复 支持 反对

使用道具 举报

发表于 2017-10-7 19:31:42 | 显示全部楼层
顶起,感谢分享
回复 支持 反对

使用道具 举报

头像被屏蔽
发表于 2017-10-8 08:33:59 | 显示全部楼层
豪记之星8下载,谢谢。
回复 支持 反对

使用道具 举报

发表于 2017-10-8 09:32:17 | 显示全部楼层
谢谢楼主的音乐分享
回复 支持 反对

使用道具 举报

发表于 2017-10-10 11:57:01 | 显示全部楼层
群星《豪记之星8》
回复 支持 反对

使用道具 举报

发表于 2017-10-13 11:15:59 | 显示全部楼层
感謝樓主的分享,收下了。
回复 支持 反对

使用道具 举报

发表于 2017-10-13 14:52:00 | 显示全部楼层
豪記之星 8  感恩樓主
回复 支持 反对

使用道具 举报

发表于 2017-10-24 20:35:31 | 显示全部楼层
整理辛苦+分享快乐
回复 支持 反对

使用道具 举报

发表于 2017-10-25 20:24:38 | 显示全部楼层
好一个完整的闽南语歌曲合集之一
回复 支持 反对

使用道具 举报

发表于 2017-11-6 20:21:48 | 显示全部楼层
感谢楼主分享好音乐,值得珍藏,下来听听!!
回复 支持 反对

使用道具 举报

发表于 2017-11-9 05:52:55 | 显示全部楼层
谢谢楼主的音乐分享
回复 支持 反对

使用道具 举报

发表于 2017-11-9 18:23:55 | 显示全部楼层
闽南歌曲资源不多,不可错过!
回复 支持 反对

使用道具 举报

发表于 2017-11-21 13:10:27 | 显示全部楼层
群星《豪记之星8》【
回复 支持 反对

使用道具 举报

您需要登录后才可以回帖 登录 | 注册会员

本版积分规则

Archiver|手机版|联系我们|风云音乐谷 ( 粤ICP备09098429号-2 )  

GMT+8, 2018-6-24 19:15 , Processed in 0.097606 second(s), 21 queries .

Powered by Discuz! X3.4

© 2001-2017 Comsenz Inc.

快速回复 返回顶部 返回列表