设为首页收藏本站

风云音乐谷

 找回密码
 注册会员

QQ登录

只需一步,快速开始

扫一扫,访问微社区




重磅:普通音乐转dts5.1环绕声、提升8倍音质(不改音响、不动设备、不接线)新功能上线!!
任何2.0音乐转为dts5.1环绕声音乐教程 制作5.1环绕声DTS Audio DVD音乐碟片 音质原形毕露:批量真假无损音乐鉴别方法
不改音响+不动设备+不接线提升8倍效果 制作5.1环绕声AC3 Audio DVD音乐碟片 提升音乐效果:用高中低音、EQ均衡器实现
破解奥迪、途锐、途观 实现U盘无损音乐 制作2.0立体声WAV Audio DVD音乐碟片 独家 绝密功能:键智能音乐切割、分割教程
制作U盘无损、有损、2.0、5.1移动音乐 制作世界最顶级DVD Audio无损音乐碟片 制作无损、有损、2.0、5.1图片画面音乐碟片
制作U盘无损、有损、2.0、5.1视频音乐 制作显示歌手和歌名cd、dts cd无损碟片 制作无损、有损、2.0、5.1视频画面音乐碟片

【揭露淘宝、微商U盘音乐和碟片15大骗术】            【新手必读:无损音乐下载、检测、制作、播放】   

查看: 1188|回复: 20

[杂合专辑] 群星《原唱原曲13月娘的眼泪》【WAV+CUE/百度】

[复制链接]
发表于 2017-10-8 10:56:18 | 显示全部楼层 |阅读模式

这么精彩的内容,您还在等什么呢?马上注册风云音乐谷查看完整内容

您需要 登录 才可以下载或查看,没有帐号?注册会员

x
cover.jpg

专辑名称:原唱原曲13-月娘的眼泪
专辑艺人:群星
发行公司:上豪唱片有限公司
发行时间:2014年07月11日
专辑语种:台语
资源类型:WAV+CUE

专辑介绍:
收录多首最新超夯经典原声原影台语流行金曲!
动人的情歌,让人更感窝心
匠尽悲欢离合真情擎爱百听不厌
金曲歌王歌后联手出击
ㄠ5首冠军歌曲.原影原音重现
精采最强档的唱将值得你珍

专辑曲目:
01.月娘的眼泪 向蕙玲主唱 三立八点档 世间情 片尾曲
02.故乡之恋 龙千玉主唱 民视8点档 风水世家 片尾曲
03.我会等待你 谢宜君主唱 三立8点档 天下女人心 片头曲
04.暧昧 罗时丰主唱 民视八点档 风水世家 片尾曲
05.望天草 张秀卿主唱 三立八点档 世间情 片头曲
06.打拼 袁小迪主唱 中视8点档 妈祖 主题曲
07.千石桥 龙千玉/江志美主唱 民视 美凤有约 片尾曲
08.一生为你 唐俪/杨哲主唱 三立 戏说台湾 片尾曲
09.爱的记号 张蓉蓉主唱 三立八点档 天下女人心 片头曲
10.心里话 陈思安主唱 三立 戏说台湾 片尾曲
11.心无言 许志豪/张秀卿主唱 三立 戏说台湾 片尾曲
12.阿母 袁小迪主唱 三立 戏说台湾 主题曲
13.决心要爱 林良欢主唱 三立 戏说台湾 主题曲
14.梦月圆 谢宜君主唱
15.胭脂泪 袁小迪/龙千玉主唱



下载地址:

游客,如果您要查看本帖隐藏内容请回复



套图地址:

游客,如果您要查看本帖隐藏内容请回复

评分

参与人数 1威望积分 +500 风云金币 +3 收起 理由
爱的天堂 + 500 + 3 分享不易,加分支持

查看全部评分

回复

使用道具 举报

 楼主| 发表于 2017-10-8 10:56:56 | 显示全部楼层
Exact Audio Copy V1.0 beta 3 from 29. August 2011

EAC 抓取日志文件从6. 十月 2015, 3:47

群星 / 原唱原曲13

使用驱动器  :PIONEER DVD-RW  DVR-221L   Adapter: 1  ID: 1

读取模式      : 可靠Secure
使用精确流     : 是
清空音频缓存    : 是
使用 C2 指示器 : 否

读取偏移校正:               : 6
读取 Lead-In 和 Lead-Out : 否
用静音填充抓取中丢失偏移的采样       : 是
去除首尾静音块               : 否
在CRC 计算中使用了空样本       : 是
已用接口                  : Win NT 及 2000 本地 Win32 接口

所用输出模式: : 内部 WAV 函数
样本格式    : 44.100 Hz; 16 Bit; 立体声


已抓取 CD 的 TOC

     音轨 |    起始    |    长度    |  起始扇区  |  结束扇区  
    --------------------------------------------
      1 |  0:00.00 |  4:39.30 |      0 |  20954
      2 |  4:39.30 |  4:19.21 |  20955 |  40400
      3 |  8:58.51 |  4:49.68 |  40401 |  62143
      4 | 13:48.44 |  5:15.31 |  62144 |  85799
      5 | 19:04.00 |  4:45.31 |  85800 | 107205
      6 | 23:49.31 |  3:48.54 | 107206 | 124359
      7 | 27:38.10 |  4:06.43 | 124360 | 142852
      8 | 31:44.53 |  4:32.26 | 142853 | 163278
      9 | 36:17.04 |  4:27.43 | 163279 | 183346
     10 | 40:44.47 |  3:52.31 | 183347 | 200777
     11 | 44:37.03 |  4:19.27 | 200778 | 220229
     12 | 48:56.30 |  4:48.20 | 220230 | 241849
     13 | 53:44.50 |  4:24.23 | 241850 | 261672
     14 | 58:08.73 |  3:56.21 | 261673 | 279393
     15 | 62:05.19 |  5:13.27 | 279394 | 302895


范围状态及错误

已选择范围

     文件名 E:\bhvvvv\原唱原曲13\群星 - 原唱原曲13.wav

     峰值电平 96.9 %
     抓取速度 2.1 X
     范围质量 100.0 %
     复制 CRC 6AE125A2
     复制成功

没有错误发生

状态报告结尾

---- CUETools DB Plugin V2.1.3

[CTDB TOCID: Q5EUVusm6kSF3I1yfsahZCRilJQ-] disk not present in database, Submit result: Q5EUVusm6kSF3I1yfsahZCRilJQ- has been uploaded


==== 记录校验日志 C90FC64F8593C924ECE71E89F5C855A270B615CD4687FE467FE21DAD48E22CC9 ====
回复 支持 反对

使用道具 举报

发表于 2017-10-8 12:40:34 | 显示全部楼层
群星《原唱原曲13月娘的眼泪》
回复 支持 反对

使用道具 举报

发表于 2017-10-13 11:23:16 | 显示全部楼层
感謝樓主的分享,收下了。
回复 支持 反对

使用道具 举报

发表于 2017-10-13 15:27:55 | 显示全部楼层
原唱原曲13-月娘的眼泪,感恩分享
回复 支持 反对

使用道具 举报

发表于 2017-10-25 20:31:10 | 显示全部楼层
真情感谢楼主的慷慨无私分享提供
回复 支持 反对

使用道具 举报

发表于 2017-11-6 18:22:18 | 显示全部楼层
感谢楼主分享好音乐,值得珍藏,下来听听!!
回复 支持 反对

使用道具 举报

发表于 2017-11-9 05:57:47 | 显示全部楼层
谢谢楼主的音乐分享
回复 支持 反对

使用道具 举报

发表于 2017-11-16 15:23:50 | 显示全部楼层
感谢楼主分享好歌
回复 支持 反对

使用道具 举报

发表于 2017-11-19 14:56:49 | 显示全部楼层
好歌碟,多谢分享!
回复 支持 反对

使用道具 举报

发表于 2017-11-22 21:44:35 | 显示全部楼层
群星《原唱原曲13月娘的眼泪》
回复 支持 反对

使用道具 举报

发表于 2018-1-22 23:11:45 | 显示全部楼层
感謝樓主的分享!!!!!!!!!!!!!!!
回复 支持 反对

使用道具 举报

发表于 2018-3-4 15:27:44 | 显示全部楼层
好歌,耐听,喜欢,不错。
回复 支持 反对

使用道具 举报

发表于 2018-3-6 22:20:50 | 显示全部楼层
谢谢楼主分享!
回复 支持 反对

使用道具 举报

发表于 2018-3-16 17:44:55 | 显示全部楼层
感謝樓主的分享,收下了。
回复 支持 反对

使用道具 举报

您需要登录后才可以回帖 登录 | 注册会员

本版积分规则

Archiver|手机版|联系我们|风云音乐谷 ( 粤ICP备09098429号-2 )  

GMT+8, 2018-10-19 14:22 , Processed in 0.233257 second(s), 24 queries .

Powered by Discuz! X3.4

© 2001-2017 Comsenz Inc.

快速回复 返回顶部 返回列表