设为首页收藏本站

风云音乐谷

 找回密码
 注册会员

QQ登录

只需一步,快速开始

扫一扫,访问微社区




重磅:普通音乐转dts5.1环绕声、提升8倍音质(不改音响、不动设备、不接线)新功能上线!!
任何2.0音乐转为dts5.1环绕声音乐教程 制作5.1环绕声DTS Audio DVD音乐碟片 音质原形毕露:批量真假无损音乐鉴别方法
不改音响+不动设备+不接线提升8倍效果 制作5.1环绕声AC3 Audio DVD音乐碟片 提升音乐效果:用高中低音、EQ均衡器实现
破解奥迪、途锐、途观 实现U盘无损音乐 制作2.0立体声WAV Audio DVD音乐碟片 独家 绝密功能:键智能音乐切割、分割教程
制作U盘无损、有损、2.0、5.1移动音乐 制作世界最顶级DVD Audio无损音乐碟片 制作无损、有损、2.0、5.1图片画面音乐碟片
制作U盘无损、有损、2.0、5.1视频音乐 制作显示歌手和歌名cd、dts cd无损碟片 制作无损、有损、2.0、5.1视频画面音乐碟片

【揭露淘宝、微商U盘音乐和碟片15大骗术】            【新手必读:无损音乐下载、检测、制作、播放】   

查看: 1281|回复: 18

[杂合专辑] 群星《原唱原曲14坚强的女人》【WAV+CUE/百度】

[复制链接]
发表于 2017-10-8 11:02:30 | 显示全部楼层 |阅读模式

这么精彩的内容,您还在等什么呢?马上注册风云音乐谷查看完整内容

您需要 登录 才可以下载或查看,没有帐号?注册会员

x
cover.jpg

专辑名称:原唱原曲14-坚强的女人
专辑艺人:群星
发行公司:上豪唱片有限公司
发行时间:2014年10月03日
专辑语种:台语
资源类型:WAV+CUE

专辑介绍:
收录多首最新超夯经典原声原影台语流行金曲!
动人的情歌,让人更感窝心
匠尽悲欢离合真情擎爱百听不厌
金曲歌王歌后联手出击
ㄠ5首冠军歌曲.
原影原音重现
精采最强档的唱将值得你珍藏

专辑曲目:
01. 坚强的女人 谢宜君主唱 三立八点档 世间情 片尾曲
02. 雪花 黄思婷主唱 民视八点档 龙飞凤舞 片尾曲
03. 真心泪 翁立友主唱 三立八点档 世间情 片尾曲
04. 真爱 杨哲/谢宜君主唱 民视八点档 龙飞凤舞 片尾曲
05. 幸福送乎你 蔡小虎主唱  
06. 多情的阿那答 方怡萍主唱 三立 戏说台湾 片尾曲
07. 爱着你 吴俊宏/向蕙玲主唱 三立八点档 世间情 片头曲
08. 阿郎行船曲 杨哲主唱 三立八点档 世间情 片头曲
09. 妈妈我爱您 陈随意主唱 三立 戏说台湾 片尾曲
10. 我的心内话 蔡小虎/龙千玉主唱  
11. 表示 翁立友主唱  
12. 蝴蝶 罗时丰主唱  
13. 笑看人生 龙千玉主唱  
14. 为爱牺牲 向蕙玲主唱  
15. 爱你一生 陈随意主唱
16. 一剑望天漄 吴俊宏主唱




下载地址:

游客,如果您要查看本帖隐藏内容请回复





套图地址:

游客,如果您要查看本帖隐藏内容请回复

评分

参与人数 1威望积分 +500 风云金币 +3 收起 理由
爱的天堂 + 500 + 3 分享不易,加分支持

查看全部评分

回复

使用道具 举报

 楼主| 发表于 2017-10-8 11:03:08 | 显示全部楼层

Exact Audio Copy V1.0 beta 3 from 29. August 2011

EAC 抓取日志文件从6. 十月 2015, 4:24

群星 / 原唱原曲14

使用驱动器  :PIONEER DVD-RW  DVR-221L   Adapter: 1  ID: 1

读取模式      : 可靠Secure
使用精确流     : 是
清空音频缓存    : 是
使用 C2 指示器 : 否

读取偏移校正:               : 6
读取 Lead-In 和 Lead-Out : 否
用静音填充抓取中丢失偏移的采样       : 是
去除首尾静音块               : 否
在CRC 计算中使用了空样本       : 是
已用接口                  : Win NT 及 2000 本地 Win32 接口

所用输出模式: : 内部 WAV 函数
样本格式    : 44.100 Hz; 16 Bit; 立体声


已抓取 CD 的 TOC

     音轨 |    起始    |    长度    |  起始扇区  |  结束扇区  
    --------------------------------------------
      1 |  0:00.00 |  3:58.28 |      0 |  17877
      2 |  3:58.28 |  4:44.57 |  17878 |  39234
      3 |  8:43.10 |  4:18.61 |  39235 |  58645
      4 | 13:01.71 |  4:03.43 |  58646 |  76913
      5 | 17:05.39 |  3:48.13 |  76914 |  94026
      6 | 20:53.52 |  3:41.30 |  94027 | 110631
      7 | 24:35.07 |  3:49.42 | 110632 | 127848
      8 | 28:24.49 |  3:42.24 | 127849 | 144522
      9 | 32:06.73 |  4:47.10 | 144523 | 166057
     10 | 36:54.08 |  4:01.35 | 166058 | 184167
     11 | 40:55.43 |  4:14.19 | 184168 | 203236
     12 | 45:09.62 |  4:51.48 | 203237 | 225109
     13 | 50:01.35 |  4:47.09 | 225110 | 246643
     14 | 54:48.44 |  4:13.58 | 246644 | 265676
     15 | 59:02.27 |  3:53.49 | 265677 | 283200
     16 | 62:56.01 |  4:32.29 | 283201 | 303629


范围状态及错误

已选择范围

     文件名 E:\bhvvvv\原唱原曲14\群星 - 原唱原曲14.wav

     峰值电平 93.4 %
     抓取速度 2.1 X
     范围质量 99.9 %
     复制 CRC 5EF43230
     复制成功

没有错误发生

状态报告结尾

---- CUETools DB Plugin V2.1.3

[CTDB TOCID: 1oOxvVAXKfoQwWL4Kn3QF.AE7SQ-] found, Submit result: 1oOxvVAXKfoQwWL4Kn3QF.AE7SQ- has been uploaded
[4098d236] (1/1) No match


==== 记录校验日志 251824B13D1F6DD0D0D946F0EF166AE361CD582BAE3E0EEE2775B714E5C55354 ====
回复 支持 反对

使用道具 举报

发表于 2017-10-8 12:40:02 | 显示全部楼层
群星《原唱原曲14坚强的女人》
回复 支持 反对

使用道具 举报

发表于 2017-10-13 11:26:35 | 显示全部楼层
感謝樓主的分享,收下了。
回复 支持 反对

使用道具 举报

发表于 2017-10-13 15:29:33 | 显示全部楼层
原唱原曲14-坚强的女人,感謝樓主
回复 支持 反对

使用道具 举报

发表于 2017-10-25 20:30:03 | 显示全部楼层
收下礼物,慢慢的品味老歌曲的韵味
回复 支持 反对

使用道具 举报

发表于 2017-11-6 18:19:57 | 显示全部楼层
感谢楼主分享好音乐,值得珍藏,下来听听!!
回复 支持 反对

使用道具 举报

发表于 2017-11-9 05:58:25 | 显示全部楼层
谢谢楼主的音乐分享
回复 支持 反对

使用道具 举报

发表于 2017-11-16 15:21:39 | 显示全部楼层
群星《原唱原曲14坚强的女人》【WAV+CUE/百度】
回复 支持 反对

使用道具 举报

发表于 2017-11-22 21:47:53 | 显示全部楼层
群星《原唱原曲14坚强的女人》
回复 支持 反对

使用道具 举报

发表于 2017-12-8 10:54:24 | 显示全部楼层
好听,谢谢分享。
回复 支持 反对

使用道具 举报

发表于 2017-12-28 08:30:57 | 显示全部楼层
感謝樓主的分享,收下了。
回复 支持 反对

使用道具 举报

发表于 2018-1-17 16:44:05 | 显示全部楼层
节奏一听就喜欢  秒吓一切
回复 支持 反对

使用道具 举报

发表于 2018-1-22 23:25:59 | 显示全部楼层
感謝樓主的分享,收下了。
回复 支持 反对

使用道具 举报

发表于 2018-2-8 11:42:08 | 显示全部楼层
应该很不错,下载下来听听。
回复 支持 反对

使用道具 举报

您需要登录后才可以回帖 登录 | 注册会员

本版积分规则

Archiver|手机版|联系我们|风云音乐谷 ( 粤ICP备09098429号-2 )  

GMT+8, 2018-10-19 15:06 , Processed in 0.180767 second(s), 24 queries .

Powered by Discuz! X3.4

© 2001-2017 Comsenz Inc.

快速回复 返回顶部 返回列表