设为首页收藏本站

风云音乐谷

 找回密码
 注册会员

QQ登录

只需一步,快速开始

扫一扫,访问微社区




重磅:普通音乐转dts5.1环绕声、提升8倍音质(不改音响、不动设备、不接线)新功能上线!!
任何2.0音乐转为dts5.1环绕声音乐教程 制作5.1环绕声DTS Audio DVD音乐碟片 音质原形毕露:批量真假无损音乐鉴别方法
不改音响+不动设备+不接线提升8倍效果 制作5.1环绕声AC3 Audio DVD音乐碟片 提升音乐效果:用高中低音、EQ均衡器实现
破解奥迪、途锐、途观 实现U盘无损音乐 制作2.0立体声WAV Audio DVD音乐碟片 独家 绝密功能:键智能音乐切割、分割教程
制作U盘无损、有损、2.0、5.1移动音乐 制作世界最顶级DVD Audio无损音乐碟片 制作无损、有损、2.0、5.1图片画面音乐碟片
制作U盘无损、有损、2.0、5.1视频音乐 制作显示歌手和歌名cd、dts cd无损碟片 制作无损、有损、2.0、5.1视频画面音乐碟片

【揭露淘宝、微商U盘音乐和碟片15大骗术】            【新手必读:无损音乐下载、检测、制作、播放】   

查看: 7857|回复: 755

[HI-FI] 陆宝《细听1CD》HQCD 限量 签名版【WAV整轨百度】

  [复制链接]
发表于 2017-12-5 19:57:44 | 显示全部楼层 |阅读模式

这么精彩的内容,您还在等什么呢?马上注册风云音乐谷查看完整内容

您需要 登录 才可以下载或查看,没有帐号?注册会员

x
简介:
该专辑由香港殿堂级歌手叶振棠、最佳录音师黎承昌联手打造,叶丽仪亲自献唱和音,并获得黎小田、陈洁灵、伦永亮等好友相助,可见陆宝在圈内人缘非同一般。
《细听》收录了陆宝曾经或仍然合作的数位香港超级巨星歌曲,张国荣《寂寞夜晚》、梅艳芳《何日》、陈百强《留住夕阳》、陈洁灵《星夜星尘》等13首经典金曲都收录其中。《爱是无涯》更获得叶丽仪亲自和音,据陆宝介绍,去年写邮件表示会唱《爱是无涯》,身在澳洲的她很快便回邮件写到:没什么可以送给你,就送这首歌的和音吧。想不到叶丽仪为这首歌唱了四部和音,更加与阿宝合唱尾段,以实际行动支持好友。
曲目:
1. 寂寞夜晚
2. 戲劇人生
3. 結他低泣時
4. 楚歌
5. 漫天風雨
6. 星夜星塵
7. 何日
8. 留住夕陽
9. 但願人長久
10. 愛是無涯 (陸寶.葉麗儀合唱)
11. 滄海一聲笑 (陸寶.葉振棠合唱)
12. 秋海棠-教堂錄音
13. 塵緣(國語)-教堂錄音

Exact Audio Copy V1.3 from 2. September 2016

EAC 抓取日志文件从25. 十一月 2017, 15:32

陆宝 / 细听 HQCD

使用驱动器  :YAMAHA  CRW-F1E   Adapter: 1  ID: 0

读取模式      : 可靠Secure
使用精确流     : 是
清空音频缓存    : 是
使用 C2 指示器 : 否

读取偏移校正:               : 733
读取 Lead-In 和 Lead-Out : 否
用静音填充抓取中丢失偏移的采样       : 是
去除首尾静音块               : 否
在CRC 计算中使用了空样本       : 是
已用接口                  : Win NT 及 2000 本地 Win32 接口

所用输出模式: : 内部 WAV 函数
样本格式    : 44.100 Hz; 16 Bit; 立体声


已抓取 CD 的 TOC

     音轨 |    起始    |    长度    |  起始扇区  |  结束扇区  
    --------------------------------------------
      1 |  0:00.00 |  5:46.31 |      0 |  25980
      2 |  5:46.31 |  3:03.27 |  25981 |  39732
      3 |  8:49.58 |  5:05.06 |  39733 |  62613
      4 | 13:54.64 |  4:46.01 |  62614 |  84064
      5 | 18:40.65 |  4:15.70 |  84065 | 103259
      6 | 22:56.60 |  4:28.46 | 103260 | 123405
      7 | 27:25.31 |  3:15.58 | 123406 | 138088
      8 | 30:41.14 |  4:44.42 | 138089 | 159430
      9 | 35:25.56 |  3:23.14 | 159431 | 174669
     10 | 38:48.70 |  5:06.55 | 174670 | 197674
     11 | 43:55.50 |  3:21.54 | 197675 | 212803
     12 | 47:17.29 |  3:38.22 | 212804 | 229175
     13 | 50:55.51 |  6:16.50 | 229176 | 257425


范围状态及错误

已选择范围

     文件名 C:\Users\Administrator\Desktop\陆宝 - 细听 HQCD.wav

     峰值电平 98.5 %
     抓取速度 5.0 X
     范围质量 100.0 %
     复制 CRC E00833DE
     复制成功

没有错误发生


AccurateRip 摘要

音轨  1  精确地校准抓取  2)  [E7977E81]  (AR v2)
音轨  2  精确地校准抓取  2)  [AFCFDFFC]  (AR v2)
音轨  3  精确地校准抓取  2)  [3EF54312]  (AR v2)
音轨  4  精确地校准抓取  2)  [D02090E9]  (AR v2)
音轨  5  精确地校准抓取  2)  [20105D22]  (AR v2)
音轨  6  精确地校准抓取  2)  [21750556]  (AR v2)
音轨  7  精确地校准抓取  2)  [B4E7B342]  (AR v2)
音轨  8  精确地校准抓取  2)  [58D22788]  (AR v2)
音轨  9  精确地校准抓取  2)  [F4132541]  (AR v2)
音轨 10  精确地校准抓取  2)  [DAB2E5CB]  (AR v2)
音轨 11  精确地校准抓取  2)  [EFE4B958]  (AR v2)
音轨 12  精确地校准抓取  2)  [E22ECBEA]  (AR v2)
音轨 13  精确地校准抓取  2)  [55599C50]  (AR v2)

所有音轨精确校准抓取

状态报告结尾

---- CUETools DB Plugin V2.1.6

[CTDB TOCID: OHt1rQJCiYTNEhbxbyY7rgbfoBc-] found
Submit result: OHt1rQJCiYTNEhbxbyY7rgbfoBc- has been confirmed
Track | CTDB Status
  1   | (18/18) Accurately ripped
  2   | (18/18) Accurately ripped
  3   | (18/18) Accurately ripped
  4   | (18/18) Accurately ripped
  5   | (18/18) Accurately ripped
  6   | (18/18) Accurately ripped
  7   | (18/18) Accurately ripped
  8   | (18/18) Accurately ripped
  9   | (18/18) Accurately ripped
10   | (18/18) Accurately ripped
11   | (18/18) Accurately ripped
12   | (17/18) Accurately ripped
13   | (18/18) Accurately ripped


==== 记录校验日志 65D3624AEB220C259CB1A3FA1E79EE35B51B1D2C65379A0B7A093CABC6B4E14C ====

下载链接:
游客,如果您要查看本帖隐藏内容请回复


cover.jpg

评分

参与人数 1威望积分 +500 风云金币 +5 收起 理由
爱的天堂 + 500 + 5 分享不易,加分支持

查看全部评分

回复

使用道具 举报

 楼主| 发表于 2017-12-5 19:58:32 | 显示全部楼层
本帖最后由 东木小子 于 2017-12-5 20:03 编辑

自购正版,雅马哈F1慢速抓轨。图片自扫,介绍来源于网络。本音轨仅供试听,请勿用于任何商业用途,下载24小时内请予删除。如若喜欢请购买正版CD。
back.jpg
回复 支持 反对

使用道具 举报

发表于 2017-12-5 20:23:21 | 显示全部楼层
好音乐,谢谢分享!
回复 支持 反对

使用道具 举报

发表于 2017-12-6 00:32:57 | 显示全部楼层
没有听过的歌手,谢谢分享。
回复 支持 反对

使用道具 举报

发表于 2017-12-6 05:19:08 | 显示全部楼层
细听,多谢分享。
回复 支持 反对

使用道具 举报

发表于 2017-12-6 07:29:55 | 显示全部楼层
谢谢楼主分享!
回复 支持 反对

使用道具 举报

发表于 2017-12-6 09:10:45 | 显示全部楼层
没听说过的歌手,要听听
回复 支持 反对

使用道具 举报

发表于 2017-12-8 03:07:15 来自手机 | 显示全部楼层
下载听听看怎么样
回复 支持 反对

使用道具 举报

发表于 2017-12-8 15:20:40 | 显示全部楼层
这个要下来听听...................
回复 支持 反对

使用道具 举报

发表于 2017-12-9 04:44:39 | 显示全部楼层
楼主发布的好资源,下载欣赏
回复 支持 反对

使用道具 举报

发表于 2017-12-9 16:13:09 | 显示全部楼层
谢楼主的辛苦分享,收藏
回复 支持 反对

使用道具 举报

发表于 2017-12-11 15:10:01 | 显示全部楼层
陆宝的细听支持了,感谢楼主分享靓碟
回复 支持 反对

使用道具 举报

发表于 2017-12-11 19:53:21 | 显示全部楼层
下来听听,谢谢分享
回复 支持 反对

使用道具 举报

发表于 2017-12-13 00:05:15 | 显示全部楼层
不熟悉的歌手,下来听一听,谢谢楼主分享!!
回复 支持 反对

使用道具 举报

发表于 2017-12-13 11:35:53 | 显示全部楼层
经典发烧好碟!!!谢谢!!!
回复 支持 反对

使用道具 举报

您需要登录后才可以回帖 登录 | 注册会员

本版积分规则

Archiver|手机版|联系我们|风云音乐谷 ( 粤ICP备09098429号-2 )  

GMT+8, 2018-10-19 14:41 , Processed in 0.206262 second(s), 21 queries .

Powered by Discuz! X3.4

© 2001-2017 Comsenz Inc.

快速回复 返回顶部 返回列表